Nebesnye zheny lugovykh mari (2012) 720p BRRip x264 HD

Total size - 777 MB

File list:
  • Nebesnye zheny lugovykh mari (2012) 720p BRRip x264 HD/Nebesnye zheny lugovykh mari (2012) 720p BRRip x264 HD/Nebesnye zheny lugovykh mari (2012) 720p BRRip x264 HD.rar - 765.46 MB
  • Nebesnye zheny lugovykh mari (2012) 720p BRRip x264 HD/Nebesnye zheny lugovykh mari (2012) 720p BRRip x264 HD.avi - 10.49 MB
  • Nebesnye zheny lugovykh mari (2012) 720p BRRip x264 HD/Nebesnye zheny lugovykh mari (2012) 720p BRRip x264 HD.jpeg - 1.05 MB
  • Nebesnye zheny lugovykh mari (2012) 720p BRRip x264 HD/Nebesnye zheny lugovykh mari (2012) 720p BRRip x264 HD.nfo - 1.82 KB
  • Nebesnye zheny lugovykh mari (2012) 720p BRRip x264 HD/Torrent Downloaded From downloadhindimovies.in.txt - 1.82 KB
  • Nebesnye zheny lugovykh mari (2012) 720p BRRip x264 HD/Torrent downloaded from h33t.com.txt - 1.82 KB
  • Nebesnye zheny lugovykh mari (2012) 720p BRRip x264 HD/Dmt Nfo.txt - 1.82 KB

Descritpion:

Format : AVI Format/Info : Audio Video Interleave Format profile : OpenDML Overall bit rate : 1 800 Kbps Writing application : VirtualDubMod 1.5.10.2 (build 2542/release) Writing library : VirtualDubMod build 2542/release Video Format : MPEG-4 Visual Format settings, BVOP : Yes Format settings, QPel : No Format settings, Matrix : Default (MPEG) Codec ID : x264 Codec ID/Hint : x264 Bit rate : 1 411 Kbps Width : 1280 pixels Height : 720 pixels Display aspect ratio : 16:9 Frame rate : 29.97 fps Resolution : 24 bits Colorimetry : 4:2:0 Scan type : Progressive Bits/(Pixel*Frame) : 0.338 Stream size : 1.03 GiB (78%) Audio Format : AC-3 Format/Info : Audio Coding 3 Codec ID : 2000 Bit rate mode : Constant Bit rate : 384 Kbps Channel(s) : 6 channels Channel positions : Front: L C R, Surround: L R, LFE Sampling rate : 48.0 KHz Stream size : 287 MiB (21%) Alignment : Aligned on interleaves Interleave, duration : 64 ms (1.53 video frames) Interleave, preload duration : 192 ms

Hash - fdeb7aa3b3da8dd5889da938f0d642776ab1080d

Comments are closed.